首页>>动画>>[机动战士高达:逆袭的夏亚].BluRay.720p.x264.AC3-CnSCG[中文字幕/2.5G]

基本信息

发布时间:2011-01-18 00:16

更新时间:2017-08-07 17:47

大小:2.5G

上传:0

下载:0

完成:293

速度:

点击下载种子

磁力下载

资源标题

[机动战士高达:逆袭的夏亚].BluRay.720p.x264.AC3-CnSCG[中文字幕/2.5G]

文件信息

bbs.cnscg.com 机动战士高达:逆袭的夏亚.mkv (2.5G)

电影下载--全部免费.html (657B)

欢迎访问圣城家园.html (645B)

机动战士高达:逆袭的夏亚a.JPG (122.85K)

机动战士高达:逆袭的夏亚b.JPG (126.87K)

免费高清在线电影.html (683B)

免费英语聊天室.html (738B)

亚洲交友中心.html (669B)

字幕组招募贴(长期有效).doc (134K)

内容介绍

<p><div class="quote"><font color="blue"><font size="5">原盘压制</font></font></div></p>
<p><br />
<a href="http://bbs.cnscg.com/" target="_blank"><img src="http://att.bbs.duowan.com/month_0901/20090110_53a2bed75b8f69a1497ftKx6qowOXi1e.jpg" alt="Image" /></a></p>
<p><br />
【内容介绍】</p>
<p><br />
  天真活泼的少女珂丝‧帕拉雅,出身于联邦高官家族,生活条件优越但却并不幸福,从小得不到足够的父爱,与继母关系更是恶劣至极,因此造就了她叛逆的性格。 <br />
  3月4日珂丝随父亲从地球前往太空,在飞船上结识了布莱德之子哈萨维‧诺亚,当一行人到达SIDE6时,正遇上阿姆罗与其女友珍一起从月面取回最新的阿姆罗专用MS——RX-93 ν高达。ν高达由阿姆罗主导设计,结合新吉恩故意泄漏的Psycho Frame(精神感应骨架)技术,能够最大限度发挥出他的NewType能力,加上装备了最新的NT脑波诱导浮游炮,终于拥有与夏亚的最新座机MSN-04沙扎比相抗衡的实力。当阿姆罗正为得到新机体而欣喜,珂丝与哈萨维亦为学习驾驶MS成绩出色而兴高采烈时,他们并不知道,夏亚正在同一个卫星上与联邦上层进行着秘密会谈。 <br />
  很不幸,正所谓冤家路窄,6日在休息时段外出骑马散步的夏亚,与带着珂丝与哈萨维驾车兜风的阿姆罗撞个正着。两人大打出手,阿姆罗甚至拔枪欲向夏亚射击,然而谁也没想到就在此时珂丝竟突然夺去阿姆罗的枪械,并与夏亚一起由新吉恩军的强化人邱尼驾机接走。 <br />
  性格叛逆的珂丝竟会接受夏亚的思想而投向吉恩,这一事实令哈萨维大受打击,他暗下决心,要说服珂丝离开敌人的阵营。与此同时,联邦与新吉恩的会谈达成了协议:新吉恩将于3月12日解除武装,向联邦投降。联邦官员们为此洋洋得意,他们做梦也没有想到,这只不过是夏亚进攻地球计划中的一环。 <br />
  经历多年动荡生涯的夏亚,对地球联邦政府已彻底不报希望。因此,这次复出的目的,便是将无视众多宇宙移民生命和权益的地球联邦政府,以及全部地球居民彻底消灭!而且,其手段之激烈程度,在人类史上也是空前的,在他的计划中,攻击的方式不再是像以往那样落下殖民卫星,而要把小行星阿克西斯推向地球,从而引起巨大的气候异变,使另一个冰河期降临在地球上,基本灭绝地面的住民,以此达到净化人类的目的。 <br />
  0093年3月12日,夏亚以降伏的姿态令联邦军放松警戒,乘机突然袭击夺回了阿克西斯。随后,开始将阿克西斯推向地球。幸而,以布莱德、阿姆罗为首的朗德‧贝尔早有准备,舰队旗舰拉‧凯拉姆号上的精锐纷纷出动,与新吉恩军展开了一场恶战。 <br />
  偷偷驾驶MS出击的哈萨维,在战场上来到了驾着大型MA——α‧瓦索隆的珂丝身旁,欲劝说她回心转意,然而珂丝完全不为所动。正在这时,驾机与珂丝作战的珍,用飞弹直接击中了珂丝所乘MA的座舱,因震惊、伤心、愤怒而失去理性的哈萨维,转身向珍的座机连续开火,令珍葬身于他的枪口之下…… <br />
  此时的朗德‧贝尔舰队,在布莱德的指挥下成功潜入了阿克西斯,将其动力部炸毁,岂料这正在夏亚的计划之中——被炸成两半的阿克西斯,后一半脱离了地球轨道,而前半部分,则继续向地球坠落下去。 <br />
  另一方面,在阿克西斯坠向地球时,阿姆罗与夏亚这对宿敌间的决斗业已分出了胜负,夏亚的座机沙扎比虽然已被阿姆罗击破并捕获了脱出舱,但他仍然发出了得意的狂笑:“你赢不了我的,阿姆罗!阿克西斯的坠落早已无法阻止了!” <br />
  值此千钧一发之际,阿姆罗奋不顾身地驾驶着ν高达来到阿克西斯最前端,欲以强大的喷射引擎动力将小行星推向与地球相反的方向。看到他的行动,联邦军的战友、甚至新吉恩军的士兵们都纷纷驾MS前来相助,想要挽救这场人类史上的大惨剧。可是,阿克西斯依然一点点向着地球移动。 <br />
  在大家都已绝望而放弃努力的时候,惊人的奇迹发生了,那些已逝的和活着的NT们,以及所有善良的人们的精神力,化作了巨大的能量场,像一道光环围绕着地球,地面上所有的人都观赏到了这一奇景,那是比极光更加美丽的人类的心灵之光,而且,在这光的作用下,阿克西斯缓缓脱离了地球的轨道,向着宇宙的深处漂去……</p>
<p> </p>
<p>D:\机动战士高达:逆袭的夏亚.mkv<br />
   General<br />
      Complete name : D:\机动战士高达:逆袭的夏亚.mkv<br />
      Format : Matroska<br />
      File size : 2.50 GiB<br />
      Duration : 1h 59mn<br />
      Overall bit rate : 2 982 Kbps<br />
      Encoded date : UTC 2011-01-15 04:55:24<br />
      Writing application : mkvmerge v3.0.0 ('Hang up your Hang-Ups') 编译于 Dec 12 2009 15:20:35<br />
      Writing library : libebml v0.7.9 + libmatroska v0.8.1<br />
   Video #1<br />
      ID : 1<br />
      Format : AVC<br />
      Format/Info : Advanced Video Codec<br />
      Format profile : <a href="mailto:High@L4.1" target="_blank">High@L4.1</a><br />
      Format settings, CABAC : Yes<br />
      Format settings, ReFrames : 4 frames<br />
      Muxing mode : Container <a href="mailto:profile=Unknown@4.1">profile=Unknown@4.1</a><br />
      Codec ID : V_MPEG4/ISO/AVC<br />
      Duration : 1h 59mn<br />
      Bit rate : 2 475 Kbps<br />
      Nominal bit rate : 2 533 Kbps<br />
      Width : 1 280 pixels<br />
      Height : 692 pixels<br />
      Display aspect ratio : 1.850<br />
      Frame rate : 23.976 fps<br />
      Resolution : 8 bits<br />
      Colorimetry : 4:2:0<br />
      Scan type : Progressive<br />
      Bits/(Pixel*Frame) : 0.117<br />
      Stream size : 2.07 GiB (83%)<br />
      Writing library : x264 core 98 r1649 20cbe10<br />
      Encoding settings : cabac=1 / ref=5 / deblock=1:-3:-3 / analyse=0x3:0x113 / me=umh / subme=9 / psy=1 / psy_rd=1.00:0.10 / mixed_ref=1 / me_range=32 / chroma_me=1 / trellis=2 / 8x8dct=1 / cqm=0 / deadzone=21,11 / fast_pskip=0 / chroma_qp_offset=-2 / threads=6 / sliced_threads=0 / nr=0 / decimate=0 / interlaced=0 / constrained_intra=0 / bframes=3 / b_pyramid=1 / b_adapt=2 / b_bias=0 / direct=1 / weightb=1 / weightp=2 / keyint=250 / keyint_min=25 / scenecut=40 / intra_refresh=0 / rc_lookahead=40 / rc=2pass / mbtree=1 / bitrate=2533 / ratetol=1.0 / qcomp=0.60 / qpmin=10 / qpmax=51 / qpstep=4 / cplxblur=20.0 / qblur=0.5 / ip_ratio=1.40 / aq=1:1.00<br />
      Language : English<br />
   Audio #2<br />
      ID : 2<br />
      Format : AC-3<br />
      Format/Info : Audio Coding 3<br />
      Codec ID : A_AC3<br />
      Duration : 1h 59mn<br />
      Bit rate mode : Constant<br />
      Bit rate : 448 Kbps<br />
      Channel(s) : 2 channels<br />
      Channel positions : L R<br />
      Sampling rate : 48.0 KHz<br />
      Stream size : 384 MiB (15%)<br />
   Text #5<br />
      ID : 5<br />
      Format : UTF-8<br />
      Codec ID : S_TEXT/UTF8<br />
      Codec ID/Info : UTF-8 Plain Text<br />
      Title : 中文</p>
<p><br />
<a href="http://bbs.cnscg.com/" target="_blank"><img src="http://img.album.pchome.net/54/82/55/54/788f5cac274d7e75f1751dfcd83db322.JPG" alt="Image" /></a></p>
<p><a href="http://bbs.cnscg.com/" target="_blank"><img src="http://img.album.pchome.net/54/82/55/54/69a6d0433295a736b39ad40eeb7412ad.JPG" alt="Image" /></a></p>