首页>>动作片>>[风云决].Storm.Rider.2008.720p.BluRay.x264.AC3-SCG[国语中字/2.05G]

基本信息

发布时间:2010-04-09 16:54

更新时间:2017-08-11 22:26

大小:2.05G

上传:0

下载:0

完成:48

速度:

点击下载种子

磁力下载

资源标题

[风云决].Storm.Rider.2008.720p.BluRay.x264.AC3-SCG[国语中字/2.05G]

文件信息

bbs.cnscg.com 风云决.mkv (2.05G)

电影下载--全部免费.html (657B)

风云决a.JPG (83.98K)

风云决b.JPG (190.57K)

欢迎访问圣城家园.html (645B)

免费高清在线电影.html (683B)

免费英语聊天室.html (738B)

亚洲交友中心.html (669B)

字幕组招募贴(长期有效).doc (134K)

内容介绍

<p><img src="http://i3.6.cn/cvbnm/42/4d/76/2bc618698a61f5d70cb8dfee0a232ddf.jpg" alt="Image" /></p>
<p>【影片原名】Feng Yu Jue<br />
【中文译名】风云决<br />
【出品公司】上海东方影视发行公司<br />
【出品年代】2008 年<br />
【上映日期】2008年7月19日  中国<br />
【官方网站】<a href="http://www.stormrider-clash.com/" target="_blank">http://www.stormrider-clash.com/</a><br />
【国  家】中国 /香港<br />
【类  别】动作/武侠/动画<br />
【导  演】林超贤 Dante Lam<br />
【主  演】谢霆锋 Nicholas Tse....步惊云<br />
      任贤齐 Richie Ren....聂风<br />
      童自荣 Tong Zirong....傲决<br />
      韩雪 Cecilia Han....第二梦<br />
      蒋小涵 Xiaohan Jiang....冰影<br />
      詹佳 Jia Chan....紫凝</p>
<p>【文件格式】X264 + DTS<br />
【影片长度】99 Mins<br />
【对白语言】普通话<br />
【字幕语言】英文/中文</p>
<p>【内容简介】</p>
<p>  “金麟岂是池中物,一遇风云便化龙!”异域奇兽火麒麟,其体内之血可令习武之人功力倍增,亦会催发魔性而令人幻化成魔。风、云两少年为报杀父深仇,合力斩杀火麒麟,吞下麒麟血,不惜以入魔为代价,将杀父仇人雄霸联手铲除。然风无法控制体内魔性,失手将云打落山崖……拜剑山庄为天下第一铸剑山庄,却被朝廷诬陷谋反而惨遭灭门。少庄主傲决死里逃生,独自隐居西域,伺机复仇。当决得知风、云二人身负麒麟血,可为其祖传旷世神剑开封,遂开始苦苦寻觅两人踪影……其时,风、云各自有了心爱之人,过着远离江湖的平淡日子。然而,决的到来,注定将掀起一场血雨腥风……</p>
<p>幕后制作:</p>
<p>  动画版电影《风云决》不同于以往影视剧对于原著的演绎,故事截取了步惊云失忆之后、风、云阻止傲决野心,引发武林风云剧变的精彩片段,全片保留了主角聂风、步惊云恩怨情仇的传统故事精华,更突破了常人演绎的动作局限,全新演绎撼天动地的武侠针锋、刀剑交织的江湖风云,形成视听效果的震撼感受。</p>
<p>  本片导演林超贤,曾执导过《千机变》、《天地雄心》、《G4 特工》、《公元2000 》、《江湖告急》、《重装警察》、《走投有路》等影片,更凭《野兽刑警》夺得第十八届香港电影金像奖「最佳导演」大奖;在谈及这部动画巨作时,他兴奋地表示《风云决》是一部能够完美体现中华武术招式、侠义情怀,动作画面极具震撼力且运用了目前顶尖的二维、三维动画技术,堪称华语武侠动画的颠峰之作。</p>
<p>  在影片制作前,林导为首的制作团队反复观看了《黄飞鸿》等经典武侠电影,对其中的精彩动作、武侠场景做了深入细致地研读;并参照程小东、袁和平、甄子丹等一流武师的武侠代表作品,对每一个角色的动作表现,从拳法到腿功、从剑术到刀法,每一个细节都进行了量身定做式的设计,再配以夸张的渲染和演绎,动画版《风云决》把中华武侠的精粹演绎到了极致。</p>
<p>  在制作方面,主创核心吸纳了众多具有国际创作背景的顶尖动漫组合、音乐人、电影制作团队等。场面设计上,《风云决》创造性地演绎了《英雄》、《卧虎藏龙》、《魔戒》等大片的经典场景,让人物在风云巨变的天地间,行云流水般地演绎顶尖的武侠争锋。近千万美元的雄厚资金保障、历时五年的磨砺打造,《风云决》的目标是具有国际水准的奇幻武侠动画巨制。</p>
<p>花絮:</p>
<p>  ?马荣成的江湖来自于他眼中的办公室斗争。他说:“那个时候我刚开始画漫画,在一间很大的漫画公司上班。每天都看到公司里的人斗来斗去,渐渐地,《风云》这个故事就在我脑子里产生了。”<br />
E:\压制MKV专用文件夹\风云决£圣城打佛\bbs.cnscg.com 风云决.mkv<br />
   General<br />
      Complete name : E:\压制MKV专用文件夹\风云决£圣城打佛\bbs.cnscg.com 风云决.mkv<br />
      Format : Matroska<br />
      File size : 2.05 GiB<br />
      Duration : 1h 39mn<br />
      Overall bit rate : 2 959 Kbps<br />
      Encoded date : UTC 2010-04-09 07:05:15<br />
      Writing application : mkvmerge v3.0.0 ('Hang up your Hang-Ups') 编译于 Dec 12 2009 15:20:35<br />
      Writing library : libebml v0.7.9 + libmatroska v0.8.1<br />
   Video #1<br />
      ID : 1<br />
      Format : AVC<br />
      Format/Info : Advanced Video Codec<br />
      Format profile : <a href="mailto:High@L4.1">High@L4.1</a><br />
      Format settings, CABAC : Yes<br />
      Format settings, ReFrames : 4 frames<br />
      Muxing mode : Container <a href="mailto:profile=Unknown@4.1">profile=Unknown@4.1</a><br />
      Codec ID : V_MPEG4/ISO/AVC<br />
      Duration : 1h 39mn<br />
      Bit rate : 2 452 Kbps<br />
      Nominal bit rate : 2 512 Kbps<br />
      Width : 1 280 pixels<br />
      Height : 640 pixels<br />
      Display aspect ratio : 2.000<br />
      Frame rate : 23.976 fps<br />
      Resolution : 8 bits<br />
      Colorimetry : 4:2:0<br />
      Scan type : Progressive<br />
      Bits/(Pixel*Frame) : 0.125<br />
      Stream size : 1.70 GiB (83%)<br />
      Writing library : x264 core 80 r1376M 3feaec2<br />
      Encoding settings : cabac=1 / ref=4 / deblock=1:-1:-1 / analyse=0x3:0x113 / me=hex / subme=7 / psy=1 / psy_rd=1.0:0.0 / mixed_ref=1 / me_range=16 / chroma_me=1 / trellis=1 / 8x8dct=1 / cqm=0 / deadzone=21,11 / fast_pskip=1 / chroma_qp_offset=-2 / threads=6 / sliced_threads=0 / nr=0 / decimate=1 / mbaff=0 / constrained_intra=0 / bframes=3 / b_pyramid=0 / b_adapt=1 / b_bias=0 / direct=1 / wpredb=1 / wpredp=2 / keyint=250 / keyint_min=25 / scenecut=40 / rc_lookahead=40 / rc=2pass / mbtree=1 / bitrate=2512 / ratetol=1.0 / qcomp=0.60 / qpmin=10 / qpmax=51 / qpstep=4 / cplxblur=20.0 / qblur=0.5 / ip_ratio=1.40 / aq=1:1.00<br />
      Language : English<br />
   Audio #2<br />
      ID : 2<br />
      Format : AC-3<br />
      Format/Info : Audio Coding 3<br />
      Codec ID : A_AC3<br />
      Duration : 1h 39mn<br />
      Bit rate mode : Constant<br />
      Bit rate : 448 Kbps<br />
      Channel(s) : 6 channels<br />
      Channel positions : Front: L C R, Surround: L R, LFE<br />
      Sampling rate : 48.0 KHz<br />
      Stream size : 318 MiB (15%)<br />
   Text #3<br />
      ID : 3<br />
      Format : UTF-8<br />
      Codec ID : S_TEXT/UTF8<br />
      Codec ID/Info : UTF-8 Plain Text<br />
      Title : 中文</p>
<p><img src="http://img.album.pchome.net/54/73/80/85/efbdc080166b5d30f608939c545bad9c.JPG" alt="Image" /></p>
<p><img src="http://img.album.pchome.net/54/73/80/85/442d5fea33319c72003b6ffdbe210805.JPG" alt="Image" /></p>
<p><br />
<div class="quote"><font color="Red"><font size="5"><strong>SCG-720PG团队成员长期招募,有意者请加QQ群:41708726<br />
<a href="http://bbs.cnscg.com/thread-320710-1-1.html" target="_blank">http://bbs.cnscg.com/thread-320710-1-1.html</a></strong></font></font></div></p>