首页>>喜剧片>>[最强囍事(国粤双语)]2011.BluRay.720p.AC3.2Audio.x264-CnSCG[中文字幕/2.64G]

基本信息

发布时间:2011-04-13 07:39

更新时间:2017-08-07 18:49

大小:2.65G

上传:0

下载:0

完成:368

速度:

点击下载种子

磁力下载

资源标题

[最强囍事(国粤双语)]2011.BluRay.720p.AC3.2Audio.x264-CnSCG[中文字幕/2.64G]

文件信息

电影下载--全部免费.html (657B)

访问圣城家园.html (635B)

免费高清电影高速下载.html (685B)

字幕组招募贴(长期有效).doc (133.5K)

最强囍事[国粤].All's.Well.End's.Well.HK.2011.BluRay.720p.AC3.2Audio.x264-CnSCG.mkv (2.65G)

内容介绍

<p><a href="http://bbs.cnscg.com/" target="_blank"><img src="http://cache.mars.sina.com.cn/nd/dataent/moviepic/pics/145/moviepic_f54d0d516b9450448278ec5b28ae1439.jpg" alt="Image" /></a></p>
<p>·片 名:<strong><font color="#ff0000">最强囍事</font></strong>/<strong><font color="#ff0000">最强囍事</font></strong>2011/最强喜事/至强喜事/家有囍事2011 <br />
·英 文:All's Well End's Well 2011<br />
·国家/地区:中国香港 <br />
·类 型:爱情/喜剧<br />
·上 映:2011年01月31日<br />
·导 演:陈庆嘉、秦小珍<br />
·监 制:黄百鸣、赵红梅、李晓萍<br />
·主 演:古天乐<br />
     张柏芝<br />
     甄子丹<br />
     刘嘉玲<br />
     黄百鸣<br />
     闫 妮<br />
     杜汶泽<br />
     熊黛林<br />
·编 剧:陈庆嘉、何妙祺、冯靖晴<br />
·片 长:100分钟<br />
·出 品:北京光线影业有限公司<br />
     安徽广播电视台<br />
     天马电影出品(香港)有限公司<br />
·语 言:国语/粤语<br />
·字 幕:中文字幕</p>
<p>·影片简介:<br />
  神级美容师沈美(古天乐 饰)是广受欢迎的美容节目主持,幕前中性温文的形象不过是讨好女人包装,骨子裏仍是个粗鲁麻甩男人。<br />
  一天,石油大王女友Dream(阎妮 饰)上门找沈,高薪礼聘沈到她那全女班的化妆品公司担任总裁。首天上班看见一班问题女人,沈才知开心太早,後悔太迟。 众女同事都不太合作,只有长期在各部门当临时工的简洁(张栢芝 饰)愿意当他的助理。<br />
  公司为提升品牌形象,在高级商场开设专柜,沈请来了在街坊商场的化妆专柜当彩妆师好友——郑宇强(甄子丹 饰)加入公司。<br />
  强凭深谙女人心理,其佣金甚至比公司高层还要高,但讽刺的是他一空忘不了初恋女友戴梦妮(刘嘉玲 饰)。戴是个失意作家,每次创作都恋爱,小说完成便失恋,每次失恋都找强。<br />
  沈在宇身上学懂与女性相处之道,在工作中为女同事解决她们各自的问题,亦意外让Dream找到年轻时,与男友陈奇侠(黄百鸣 饰)的恋爱感觉。当侠察觉到Dream的转变,以为她有新的恋情,还一度误会沈是第三者。<br />
  拍摄新产品广告发生小意外,让沈和富二代/游艇王子滑溜溜(杜汶泽 饰)成为朋友,赵晨浩、BOSS(亚洲天团热力兄弟)饰演游艇王子滑溜溜的左右帮手,也令滑对简生了好感,展开追求。自幼家贫的简为把握这嫁入豪门的机会,向沈求教如何吸引滑。<br />
  一次商务会议,沈、简却遇上滑前度Victoria(熊黛林 饰),简更被奚落一番,沈代简出头,更决意要帮简成为千亿新抱。另一边厢,滑也向沈请教如何追求简,沈成了滑、简二人的爱情军师。<br />
  沈与简出埠为新产品做研发,沈暗中叫滑随行。行程中一夜,简喝醉得罪流氓,沈出手相救。简朦胧间见平日阴柔的沈男子气慨的一面,以为是幻觉。沈心知一直硬装坚强的简真正需要的,是一个男人的保护。<br />
  沈为简赴滑的约会前化妆,简忽而感怀身世,眼泪把妆都糊掉,沈为她拭泪,二人都有点动情。<br />
  回港后,简苦恼犹豫自己好像爱上对异性没兴趣的沈,向沈表达了自己的感觉,沈却选择刻意回避。但当知道简接受了滑的求婚,沈才醒悟无法不面对自己的感情…… </p>
<p><br />
E:\SCG工作\最强囍事[国粤]All's.Well.End's.Well.HK.2011.BluRay.720p.AC3.2Audio.x264-CnSCG\最强囍事[国粤].All's.Well.End's.Well.HK.2011.BluRay.720p.AC3.2Audio.x264-CnSCG.mkv<br />
  General<br />
    Complete name : E:\SCG工作\最强囍事[国粤]All's.Well.End's.Well.HK.2011.BluRay.720p.AC3.2Audio.x264-CnSCG\最强囍事[国粤].All's.Well.End's.Well.HK.2011.BluRay.720p.AC3.2Audio.x264-CnSCG.mkv<br />
    Format : Matroska<br />
    File size : 2.65 GiB<br />
    Duration : 1h 43mn<br />
    Overall bit rate : 3 667 Kbps<br />
    Encoded date : UTC 2011-04-12 12:24:38<br />
    Writing application : mkvmerge v2.9.7 ('Tenderness') built on Jul  1 2009 18:43:35<br />
    Writing library : libebml v0.7.7 + libmatroska v0.8.1<br />
  Video #1<br />
    ID : 1<br />
    Format : AVC<br />
    Format/Info : Advanced Video Codec<br />
    Format profile : <a href="mailto:High@L4.1" target="_blank">High@L4.1</a><br />
    Format settings, CABAC : Yes<br />
    Format settings, ReFrames : 6 frames<br />
    Muxing mode : Container <a href="mailto:profile=Unknown@4.1">profile=Unknown@4.1</a><br />
    Codec ID : V_MPEG4/ISO/AVC<br />
    Duration : 1h 43mn<br />
    Bit rate : 2 506 Kbps<br />
    Nominal bit rate : 2 578 Kbps<br />
    Width : 1 280 pixels<br />
    Height : 720 pixels<br />
    Display aspect ratio : 16:9<br />
    Frame rate : 24.000 fps<br />
    Resolution : 8 bits<br />
    Colorimetry : 4:2:0<br />
    Scan type : Progressive<br />
    Bits/(Pixel*Frame) : 0.113<br />
    Stream size : 1.81 GiB (68%)<br />
    Writing library : x264 core 114 r1913 5fd3dce<br />
    Encoding settings : cabac=1 / ref=6 / deblock=1:-3:-2 / analyse=0x3:0x133 / me=umh / subme=8 / psy=1 / psy_rd=1.00:0.10 / mixed_ref=1 / me_range=24 / chroma_me=1 / trellis=2 / 8x8dct=1 / cqm=0 / deadzone=21,11 / fast_pskip=0 / chroma_qp_offset=-2 / threads=6 / sliced_threads=0 / nr=0 / decimate=0 / interlaced=0 / constrained_intra=0 / bframes=4 / b_pyramid=2 / b_adapt=2 / b_bias=0 / direct=1 / weightb=1 / open_gop=0 / weightp=2 / keyint=250 / keyint_min=24 / scenecut=40 / intra_refresh=0 / rc_lookahead=40 / rc=2pass / mbtree=1 / bitrate=2578 / ratetol=1.0 / qcomp=0.60 / qpmin=10 / qpmax=51 / qpstep=4 / cplxblur=20.0 / qblur=0.5 / ip_ratio=1.40 / aq=1:1.00<br />
    Language : English<br />
  Audio #2<br />
    ID : 2<br />
    Format : AC-3<br />
    Format/Info : Audio Coding 3<br />
    Codec ID : A_AC3<br />
    Duration : 1h 43mn<br />
    Bit rate mode : Constant<br />
    Bit rate : 448 Kbps<br />
    Channel(s) : 6 channels<br />
    Channel positions : Front: L C R, Surround: L R, LFE<br />
    Sampling rate : 48.0 KHz<br />
    Stream size : 331 MiB (12%)<br />
    Title : 粤语<br />
    Language : Chinese<br />
  Audio #3<br />
    ID : 3<br />
    Format : AC-3<br />
    Format/Info : Audio Coding 3<br />
    Codec ID : A_AC3<br />
    Duration : 1h 43mn<br />
    Bit rate mode : Constant<br />
    Bit rate : 640 Kbps<br />
    Channel(s) : 6 channels<br />
    Channel positions : Front: L C R, Surround: L R, LFE<br />
    Sampling rate : 48.0 KHz<br />
    Stream size : 473 MiB (17%)<br />
    Title : 国语<br />
    Language : Chinese<br />
  Text #4<br />
    ID : 4<br />
    Format : SSA<br />
    Codec ID : S_TEXT/SSA<br />
    Codec ID/Info : Sub Station Alpha</p>
<p><a href="http://bbs.cnscg.com/" target="_blank"><img src="http://www.tu5.com.cn/free_2011_04_q/1302621436x1968129335.jpg" alt="Image" /></a></p>
<p><br />
<a href="http://bbs.cnscg.com/" target="_blank"><img src="http://www.tu5.com.cn/free_2011_04_q/1302621811x1968129335.jpg" alt="Image" /></a></p>
<p><br />
<strong><font color="blue">不能下载种子的,请到下面地址下载:</font></strong></p>
<p><a href="http://up.dream2008.cn/?id=218" target="_blank">http://up.dream2008.cn/?id=218</a></p>